<?xml version="1.0" standalone="no"?>
<!DOCTYPE svg PUBLIC "-//W3C//DTD SVG 1.1//EN" "http://www.w3.org/Graphics/SVG/1.1/DTD/svg11.dtd" >
<svg>
<defs>
<font id="FacebookLetterFaces-Regular" horiz-adv-x="1048" >
  <font-face 
    font-family="Facebook Letter Faces"
    font-weight="400"
    font-stretch="normal"
    units-per-em="2048"
    panose-1="0 0 5 0 0 0 0 0 0 0"
    ascent="1536"
    descent="-512"
    x-height="1090"
    cap-height="1536"
    bbox="-2 -547 2130 1989"
    underline-thickness="102"
    underline-position="-51"
    unicode-range="U+000D-E000"
  />
<missing-glyph horiz-adv-x="748" 
d="M68 0v1365h544v-1365h-544zM136 68h408v1229h-408v-1229z" />
    <glyph glyph-name=".notdef" horiz-adv-x="748" 
d="M68 0v1365h544v-1365h-544zM136 68h408v1229h-408v-1229z" />
    <glyph glyph-name="glyph1" horiz-adv-x="0" 
 />
    <glyph glyph-name="glyph1" horiz-adv-x="0" 
 />
    <glyph glyph-name="uni000D" unicode="&#xd;" horiz-adv-x="2048" 
 />
    <glyph glyph-name="space" unicode=" " horiz-adv-x="827" 
 />
    <glyph glyph-name="exclam" unicode="!" horiz-adv-x="524" 
d="M84 1436l41 -1026h283l36 1026h-360zM88 164q0 -95 39 -125q37 -37 135 -37q102 0 139 37q41 29 41 125q0 90 -41 119q-36 36 -139 36q-99 0 -135 -36q-39 -30 -39 -119z" />
    <glyph glyph-name="quotedbl" unicode="&#x22;" horiz-adv-x="913" 
d="M74 1376q0 -48 8 -74.5t33 -46.5q10 -10 26 -18q6 -5 29 -11q25 -7 31 -7q3 -2 16 -3q3 0 6.5 -0.5t5.5 -1.5h2l-71 -194l98 4l141 240q7 14 13 28q14 44 14 84q0 37 -1 48q-4 50 -38 77q-41 33 -137 33q-98 0 -135 -33q-18 -15 -27 -37q-14 -31 -14 -88zM492 1376
q0 -49 7.5 -75t32.5 -46q6 -6 13 -10q17 -11 28 -15q2 -1 5.5 -2t5.5 -2t4 -1q14 -6 31 -6q5 -2 16 -3q3 0 6 -0.5t5 -1t3 -0.5l-71 -194l98 4l141 240q3 6 12 28q15 45 15 84q0 37 -1 48q-4 50 -38 77q-40 33 -137 33q-98 0 -136 -33q-17 -13 -27 -37q-13 -31 -13 -88z" />
    <glyph glyph-name="numbersign" unicode="#" horiz-adv-x="1280" 
d="M78 530h162l-66 -249l172 -5l70 254h264l-68 -249h179l67 249h254l27 199h-228l72 258h184l29 199h-160l68 246h-176l-68 -246h-268l70 246h-177l-67 -246h-254l-25 -199h228l-76 -258h-185zM471 729l68 258h270l-74 -258h-264z" />
    <glyph glyph-name="dollar" unicode="$" horiz-adv-x="1292" 
d="M90 1128q-23 -208 88 -323q55 -54 136 -92.5t253 -91.5q48 -13 72 -21q78 -23 112 -43q48 -29 64 -61q17 -39 2 -82q-37 -99 -252 -99q-88 0 -177 12q-113 15 -166 27q-116 23 -120 23l35 -346q181 -34 383 -45v-197h230v201q154 19 245 67q191 95 215 349q8 65 -4 157
q-12 94 -82 164q-48 49 -123 84.5t-251 91.5q-131 39 -188.5 67t-80.5 70q-16 37 -2 82q42 99 271 99q78 0 188 -12q61 -8 156 -23q12 -2 23 -4t17.5 -3t8.5 -1l-29 333q-185 32 -364 35v199h-230v-209q-120 -13 -213 -59q-96 -54 -148 -137.5t-69 -211.5z" />
    <glyph glyph-name="percent" unicode="%" horiz-adv-x="1641" 
d="M0 1067q0 -171 71 -270q77 -106 255 -99q166 -6 246.5 88.5t80.5 282.5q0 181 -78 278t-241 93q-173 4 -253.5 -91.5t-80.5 -281.5zM184 1067q0 225 144 225q73 0 109 -57t32 -168q9 -223 -141 -223q-144 0 -144 223zM248 4h260l887 1421h-263zM991 358q0 -171 70 -267
q73 -103 252 -103q171 0 249 92.5t78 281.5q0 170 -66 267q-74 106 -255 102q-338 0 -328 -373zM1171 358q0 113 38.5 170.5t109.5 57.5q142 0 139 -226q3 -225 -139 -225q-148 0 -148 223z" />
    <glyph glyph-name="ampersand" unicode="&#x26;" horiz-adv-x="1484" 
d="M72 342q0 -41 8 -84q8 -47 39.5 -104t76.5 -96q52 -45 147.5 -74t215.5 -29q149 -7 309 61q68 27 121 68l86 -84h383l-260 272q34 46 49 80q48 88 80 183l-223 53q-18 -46 -53 -96q-18 -24 -29 -33l-201 225q85 28 156 84q154 119 143 305q-12 141 -126 231.5t-287 90.5
q-223 0 -351 -119q-54 -47 -84 -112t-30 -132q0 -146 120 -272l11 -8l-17 -11q-284 -141 -284 -399zM389 428q31 76 168 129l4 2l4 -2q40 -44 152 -160q38 -44 98 -106q-31 -20 -59 -33q-80 -33 -156 -33q-83 0 -135.5 28t-65.5 64q-33 46 -10 111zM543 1059q0 60 41.5 93.5
t103.5 33.5q59 0 101 -32t49 -89q5 -51 -30 -100q-39 -54 -159 -84h-4l-2 2q-38 33 -63.5 72.5t-31.5 65.5q-5 23 -5 38z" />
    <glyph glyph-name="quotesingle" unicode="'" horiz-adv-x="497" 
d="M72 1376q0 -48 8 -74.5t33 -46.5q10 -10 26 -18q6 -5 29 -11q24 -7 31 -7q3 -2 16 -3q3 0 6.5 -0.5t5.5 -1.5h2l-71 -194l98 4l141 240q7 14 13 28q14 44 14 84q0 37 -1 48q-4 50 -38 77q-41 33 -137 33q-98 0 -135 -33q-18 -15 -27 -37q-14 -31 -14 -88z" />
    <glyph glyph-name="parenleft" unicode="(" horiz-adv-x="661" 
d="M72 504q0 -171 31 -304q53 -239 193 -358q118 -100 259 -100h10l15 168q-94 25 -163 174t-69 369v194q0 241 78 387q70 132 154 150l-15 174h-10q-108 0 -216 -67q-109 -67 -187 -237q-80 -174 -80 -458v-92z" />
    <glyph glyph-name="parenright" unicode=")" horiz-adv-x="675" 
d="M90 -82l14 -174h11q108 0 217 68q110 68 187 237q79 171 79 457v92q0 169 -30 304q-55 241 -194 359q-116 99 -259 99h-11l-14 -168q94 -25 163 -174t69 -369v-194q0 -242 -77 -386q-71 -133 -155 -151z" />
    <glyph glyph-name="asterisk" unicode="*" horiz-adv-x="944" 
d="M80 1100l108 -187l195 138l-18 -240h213l-19 240l195 -138l108 187l-217 102l217 103l-108 188l-195 -137l19 237h-213l18 -237l-195 137l-108 -188l213 -103z" />
    <glyph glyph-name="plus" unicode="+" horiz-adv-x="1218" 
d="M72 408h391v-390h280v390h394v280h-394v393h-280v-393h-391v-280z" />
    <glyph glyph-name="comma" unicode="," horiz-adv-x="503" 
d="M74 147q0 -48 8 -74t33 -46q10 -10 26 -18q6 -5 29 -11q24 -7 31 -7q3 -2 16 -3q3 0 6.5 -0.5t5.5 -1.5h2l-71 -195l98 4l141 240q7 14 13 28q14 44 14 84q0 37 -1 48q-4 50 -38 77q-41 33 -137 33q-98 0 -135 -33q-18 -15 -27 -37q-14 -31 -14 -88z" />
    <glyph glyph-name="hyphen" unicode="-" horiz-adv-x="1083" 
d="M82 408h924v280h-924v-280z" />
    <glyph glyph-name="period" unicode="." horiz-adv-x="499" 
d="M74 150q0 -93 45 -125q37 -37 133 -37q97 0 135 37q43 30 43 125q0 86 -43 120q-35 35 -135 35t-133 -35q-45 -36 -45 -120z" />
    <glyph glyph-name="slash" unicode="/" horiz-adv-x="1150" 
d="M2 0h258l885 1421h-260z" />
    <glyph glyph-name="zero" unicode="0" horiz-adv-x="1398" 
d="M43 766q0 -146 21 -264q45 -253 193 -387q158 -144 439 -138q337 -7 497.5 194.5t160.5 602.5q0 145 -19 258q-43 255 -186 386q-159 146 -447 136q-139 3 -252 -32q-215 -68 -315 -267q-97 -193 -92 -489zM408 766q0 239 76 360t216 121q145 0 214 -118.5t69 -360.5
q0 -481 -283 -481q-292 0 -292 479z" />
    <glyph glyph-name="one" unicode="1" horiz-adv-x="722" 
d="M43 1214h260v-1214h367v1534h-590z" />
    <glyph glyph-name="two" unicode="2" horiz-adv-x="1208" 
d="M45 0h1077l35 309h-610l131 105q84 70 172 149q71 64 152 157q56 65 106 168q41 88 41 187q0 217 -147.5 346t-411.5 129q-221 0 -416 -94l-41 -364q94 51 195.5 90t163.5 45q131 18 205.5 -28.5t68.5 -147.5q-1 -39 -19 -79q-19 -43 -41 -73.5t-71 -75.5
q-60 -55 -226 -194q-94 -79 -157 -133l-207 -177v-319z" />
    <glyph glyph-name="three" unicode="3" horiz-adv-x="1148" 
d="M33 59q186 -82 416 -82q298 0 475.5 129.5t177.5 337.5q0 148 -90.5 245.5t-251.5 127.5v4q289 94 289 353q0 168 -143.5 275t-385.5 107q-188 0 -319 -45l-23 -182l-16 -141q93 40 274 65q248 20 248 -125q0 -38 -18 -67q-33 -54 -113 -78q-63 -19 -158 -31l-153 -12
v-258l153 -14q43 -3 98 -13q105 -20 159 -59q65 -48 65 -133q0 -172 -293 -172q-94 0 -189.5 25t-166.5 63z" />
    <glyph glyph-name="four" unicode="4" horiz-adv-x="1339" 
d="M39 326h756v-326h315v326h156l16 133l23 178h-195v897h-465l-606 -934v-274zM434 637l361 549v-549h-361z" />
    <glyph glyph-name="five" unicode="5" horiz-adv-x="1206" 
d="M33 53q85 -34 202 -56t232 -22q155 0 287 43.5t221 119.5q87 75 134.5 172.5t47.5 205.5q0 256 -196 383q-157 111 -422 111q-41 0 -76 -6l35 219h555l39 311h-887l-92 -803q95 14 204 14q455 0 455 -256q0 -198 -321 -198q-84 0 -191.5 24.5t-189.5 57.5z" />
    <glyph glyph-name="six" unicode="6" horiz-adv-x="1705" 
d="M35 651q0 -676 641 -676q151 0 268.5 43t188.5 122q142 155 137 392q-8 284 -151 399q-129 103 -345 103q-134 0 -252 -39q-44 -16 -82 -39q18 40 50 81q34 44 93 88t129 76q165 76 380 54l-35 306h-115q-383 -21 -616 -228q-140 -121 -215.5 -296t-75.5 -386zM399 592
q16 51 87 93t167 48q138 6 208.5 -43.5t70.5 -169.5q0 -114 -64.5 -170.5t-197.5 -62.5q-63 -3 -111 16q-88 31 -134 124q-39 80 -26 165z" />
    <glyph glyph-name="seven" unicode="7" horiz-adv-x="1218" 
d="M45 1223h707q-295 -367 -494 -824q-88 -205 -147 -399h415q114 480 392 934q132 220 253 375v225h-1091z" />
    <glyph glyph-name="eight" unicode="8" horiz-adv-x="1288" 
d="M37 403q0 -163 143 -291q71 -64 189 -100.5t262 -36.5q277 0 446.5 129t169.5 338q0 133 -83.5 233.5t-217.5 147.5l4 2q113 57 173.5 146.5t60.5 193.5q0 57 -18 112q-40 117 -162 195q-133 84 -349 84q-161 0 -287 -52q-130 -53 -204 -152.5t-74 -225.5
q0 -217 232 -335v-5q-285 -122 -285 -383zM420 438q0 87 49.5 146.5t144.5 83.5q250 -67 250 -254q0 -79 -59 -123.5t-160 -44.5q-102 0 -164.5 54t-60.5 138zM446 1139q0 75 49 117t144 42q96 0 144 -46t48 -128q0 -68 -45.5 -121t-115.5 -71q-106 29 -165 81.5t-59 125.5z
" />
    <glyph glyph-name="nine" unicode="9" horiz-adv-x="1705" 
d="M170 1001q7 -283 155 -398q133 -103 345 -103q149 0 248 41q33 11 81 41q-24 -66 -79 -130q-57 -66 -191 -122q-131 -54 -360 -54l-33 -305q3 0 12 0.5t26 1t35 0.5q84 2 91 2q386 21 618 226q138 122 213.5 299t75.5 387q0 117 -19 211q-43 210 -185 329
q-157 129 -437 129q-150 0 -267.5 -42.5t-189.5 -120.5q-144 -154 -139 -392zM512 1012q0 119 64.5 176t195.5 57q100 0 170 -49q68 -48 93.5 -117t6.5 -137q-15 -51 -87 -93t-167 -46q-276 -18 -276 209z" />
    <glyph glyph-name="colon" unicode=":" horiz-adv-x="489" 
d="M70 203q0 -87 39 -125q41 -35 141 -35q94 0 135 35q41 39 41 125q0 82 -41 121q-41 36 -135 36q-100 0 -141 -36q-39 -38 -39 -121zM70 868q0 -88 41 -125.5t139 -37.5q91 0 135 38q41 39 41 125q0 78 -41 117q-43 39 -135 39q-96 0 -138 -37.5t-42 -118.5z" />
    <glyph glyph-name="semicolon" unicode=";" horiz-adv-x="489" 
d="M68 203q0 -89 38 -125q30 -35 123 -35l-77 -199h98l145 246q5 9 13 29q12 36 12 84q0 86 -39 121.5t-135 35.5q-99 0 -140 -36q-38 -36 -38 -121zM68 868q0 -89 40.5 -126t137.5 -37q94 0 134 37t40 126q0 82 -40.5 119t-133.5 37q-95 0 -136.5 -37t-41.5 -119z" />
    <glyph glyph-name="less" unicode="&#x3c;" horiz-adv-x="849" 
d="M72 381l716 -453v336l-446 283l446 282v336l-716 -448v-336z" />
    <glyph glyph-name="equal" unicode="=" horiz-adv-x="1046" 
d="M63 168v278h920v-278h-920zM63 647h920v281h-920v-281z" />
    <glyph glyph-name="greater" unicode="&#x3e;" horiz-adv-x="843" 
d="M66 -72l716 449v336l-716 452v-336l446 -282l-446 -283v-336z" />
    <glyph glyph-name="question" unicode="?" horiz-adv-x="1062" 
d="M72 1133q288 51 391 45q125 0 164 -33q35 -18 35 -156q0 -123 -29 -143q-35 -41 -166 -41h-21q-59 0 -262 26v-423h338v147q337 3 439 227q36 64 36 207h2l-2 2q0 2 1 5t1 8h-2q-6 175 -61 245q-122 183 -432 183q-185 0 -404 -48zM178 164q0 -95 43 -125q37 -37 135 -37
q96 0 133 37q43 30 43 125q0 89 -43 119q-36 36 -133 36q-99 0 -135 -36q-43 -30 -43 -119z" />
    <glyph glyph-name="at" unicode="@" horiz-adv-x="1607" 
d="M70 459q0 -339 206 -500q103 -94 255 -125q126 -27 233 -27h379l22 193h-397q-242 0 -360 106h-2q-130 108 -130 386q0 148 22 242.5t79 164.5v4q61 69 172 107.5t246 38.5q153 0 250 -22.5t165 -82.5q101 -80 111 -326q0 -58 -7.5 -110.5t-25.5 -104.5t-56 -74t-91 -3
v303q0 102 -35 172q-58 117 -299 117h-250l-22 -209h233q71 0 98 -21l2 -3q3 -3 5.5 -6.5t3.5 -5.5q7 -9 10 -21q4 -16 4 -34v-26h-121q-172 0 -213 -33q-104 -47 -104 -194v-7q0 -96 59.5 -167.5t159.5 -71.5h22q117 0 228 63q0 -3 2 -7.5t4 -8t2 -4.5l4 -8q1 0 15 -4
t31 -8.5t26 -6.5q92 -16 182 -16q77 0 134 28q109 50 161 189q47 127 47 305q0 306 -187 451q-96 79 -230 113t-325 34q-183 0 -328 -52.5t-233 -150.5q-95 -103 -126 -227.5t-31 -349.5zM698 365q0 29 17 43q12 12 90 12h86v-88q-76 -35 -121 -35q-72 0 -72 68z" />
    <glyph glyph-name="A" unicode="A" horiz-adv-x="1548" 
d="M4 0h434l70 236h536l72 -236h432l-555 1536h-430zM580 520l196 658l197 -658h-393z" />
    <glyph glyph-name="B" unicode="B" horiz-adv-x="1320" 
d="M74 4q8 0 333 -9t361 -9q184 0 335 102q76 51 120.5 138.5t44.5 193.5v37q0 113 -45 194.5t-142 143.5q142 114 142 276v39q0 95 -27 170q-50 137 -183 204q-117 58 -284 64q-189 0 -346 -6q-131 -3 -309 -6v-1532zM465 305v332h317q67 -10 104.5 -57t37.5 -121
q0 -77 -54 -121q-53 -43 -144 -43h-4h-17l-234 8zM465 915v322l203 4q9 1 26 1q95 0 144 -42t49 -123q0 -61 -16 -94q-15 -32 -38 -45t-73 -23h-295z" />
    <glyph glyph-name="C" unicode="C" horiz-adv-x="1208" 
d="M70 719q0 -241 53 -379q144 -354 633 -354q128 0 231 16q43 8 160 23v305q-218 -35 -322 -35h-37q-208 0 -274 78q-61 61 -61 260v233q0 246 69 303q39 39 99.5 53.5t173.5 14.5q131 0 352 -33v303q-218 43 -389 43q-439 0 -602 -286q-86 -143 -86 -445v-100z" />
    <glyph glyph-name="D" unicode="D" horiz-adv-x="1411" 
d="M70 0q8 0 20 -0.5t30.5 -1t33.5 -0.5t45 -0.5t41 -1.5q188 -4 419 -4q501 0 635 348q52 119 52 379v100q0 285 -89 445q-145 280 -602 280q-2 0 -16 -0.5t-43.5 -1t-63.5 -0.5q-156 -2 -198 -2q-106 -2 -264 -2v-1538zM457 303v926q93 10 161 10q209 0 273 -70
q70 -70 70 -301v-237q0 -96 -13 -155t-49.5 -101.5t-101.5 -60t-170 -17.5h-37q-84 0 -133 6z" />
    <glyph glyph-name="E" unicode="E" horiz-adv-x="1038" 
d="M72 0h897v303h-502v330h375l24 280h-399v326h502v297h-897v-1536z" />
    <glyph glyph-name="F" unicode="F" horiz-adv-x="1034" 
d="M70 0h393v635h371l30 278h-401v326h500v297h-893v-1536z" />
    <glyph glyph-name="G" unicode="G" horiz-adv-x="1300" 
d="M70 721q0 -262 49 -381q148 -352 635 -352q171 0 338 26q63 12 137 29v870h-570l-30 -278h227v-338h-72q-214 0 -266 76q-67 43 -67 256v239q0 119 21 202q21 82 52 101q65 68 271 68q164 0 383 -37l-33 303q-214 41 -389 41q-428 0 -600 -282q-86 -125 -86 -443v-100z
" />
    <glyph glyph-name="H" unicode="H" horiz-adv-x="1339" 
d="M72 0h391v635h414v-635h395v1536h-395v-623h-414v623h-391v-1536z" />
    <glyph glyph-name="I" unicode="I" horiz-adv-x="538" 
d="M76 0h391v1536h-391v-1536z" />
    <glyph glyph-name="J" unicode="J" horiz-adv-x="870" 
d="M55 -14h62q142 0 232 18t196 72q65 35 107.5 72.5t78.5 93.5q74 116 74 346v948h-391v-1001q0 -109 -53 -160q-54 -52 -125 -67q-63 -13 -146 -13z" />
    <glyph glyph-name="K" unicode="K" horiz-adv-x="1374" 
d="M66 0h393v731q13 -21 50 -79.5t62 -97.5q19 -30 40.5 -64t35 -55.5t21.5 -33.5q32 -48 104 -163q18 -29 50.5 -81.5t46.5 -73.5q38 -61 53 -83h407q-12 19 -161 247q-143 215 -251 380q-116 176 -116 180l497 729h-409l-32 -47q-131 -201 -183 -285q-107 -162 -215 -332
v664h-393v-1536z" />
    <glyph glyph-name="L" unicode="L" horiz-adv-x="1034" 
d="M61 0h920l-31 299h-499v1237h-390v-1536z" />
    <glyph glyph-name="M" unicode="M" horiz-adv-x="2154" 
d="M49 0h445l131 1085l313 -1085h289l313 1085l131 -1085h434l-233 1536h-584l-207 -729l-204 729h-598z" />
    <glyph glyph-name="N" unicode="N" horiz-adv-x="1378" 
d="M66 0h391v819l463 -819h393v1534h-393v-809l-463 809h-391v-1534z" />
    <glyph glyph-name="O" unicode="O" horiz-adv-x="1435" 
d="M39 717q0 -266 51 -377q147 -352 631 -352q235 0 391 84q164 86 240 268q49 105 49 377v100q0 320 -86 445q-83 137 -226 209.5t-368 72.5q-429 0 -594 -282q-88 -118 -88 -445v-100zM420 643v236q0 120 20 195q19 73 52 93q62 62 229 68q167 -6 229 -68q64 -40 64 -297
v-233q0 -220 -58 -266q-50 -71 -235 -74q-188 3 -238 74q-27 23 -45 92q-18 71 -18 180z" />
    <glyph glyph-name="P" unicode="P" horiz-adv-x="1292" 
d="M76 0h383v451q6 0 114 -13q91 -9 139 -9q16 0 23 1q187 0 295.5 59t165.5 189q35 70 35 272v72q0 190 -62 319q-58 106 -161 154.5t-273 48.5q-124 0 -475 -6q-12 -1 -44.5 -1.5t-48.5 -0.5t-36 -0.5t-33.5 -1t-21.5 -0.5v-1534zM459 731v524q119 9 194 9q42 0 69.5 -2
t64 -14t59.5 -34q37 -43 37 -163v-138q0 -65 -10 -97t-37 -60q-17 -21 -48 -32q-27 -10 -102 -10h-8q-75 0 -219 17z" />
    <glyph glyph-name="Q" unicode="Q" horiz-adv-x="1576" 
d="M57 717q0 -266 52 -377q149 -352 628 -352q238 0 377 78l10 -5l56 -61h397l-252 252q30 57 43 88q49 99 49 377v100q0 321 -84 445q-75 126 -205 196q-155 86 -391 86q-230 0 -391 -86q-125 -69 -203 -196q-86 -128 -86 -445v-100zM438 643v236q0 120 20 195q19 73 52 93
q62 62 227 68q171 -6 230 -68q65 -42 65 -297v-233q0 -27 -1 -46t-1 -42l-82 82l-198 -195l118 -125q-64 -14 -131 -14q-183 3 -233 74q-28 22 -47 92q-19 69 -19 180z" />
    <glyph glyph-name="R" unicode="R" horiz-adv-x="1363" 
d="M78 0h383v451q18 2 49 2q164 0 231 -70q37 -38 60 -84.5t90 -206.5q28 -63 37 -92h405q-5 11 -59 147q-75 183 -76 185q-15 36 -35 66q-25 39 -72.5 79.5t-97.5 59.5q67 29 108 63.5t70 85.5q64 106 64 264v72q0 187 -61 319q-64 107 -164.5 155t-268.5 48
q-126 0 -477 -6q-12 -1 -45 -1.5t-49 -0.5t-36.5 -0.5t-34 -1t-21.5 -0.5v-1534zM461 731v524q113 9 188 9q47 0 75.5 -2t68 -14.5t63.5 -37.5q19 -25 27 -61t8 -107v-112q0 -54 -9 -89q-11 -39 -46.5 -71t-94.5 -43q-23 -5 -40 -5q-10 0 -15 1q-40 0 -131 4q-6 1 -22.5 1.5
t-24.5 0.5t-24.5 0.5t-22.5 1.5z" />
    <glyph glyph-name="S" unicode="S" horiz-adv-x="1292" 
d="M80 1054q0 -157 88 -251q108 -108 393 -182q121 -35 174.5 -61t73.5 -66q11 -22 11 -42q0 -18 -9 -38q-35 -99 -252 -99q-176 0 -461 60l31 -344q265 -43 459 -43h49q101 6 123 8q50 4 115.5 20.5t109.5 40.5q190 96 217 349q5 42 5 72q0 154 -93 247q-59 64 -168 107
q-86 34 -205 67q-82 25 -94 29q-98 31 -137 65q-44 38 -44 85q0 20 7 40q40 103 268 103q95 0 207 -14.5t187 -32.5l-33 335q-243 35 -397 35h-58q-101 -6 -119 -8q-138 -14 -227 -63q-190 -94 -217 -349q-4 -33 -4 -70z" />
    <glyph glyph-name="T" unicode="T" horiz-adv-x="1288" 
d="M80 1237h362v-1237h394v1237h366v297h-1122v-297z" />
    <glyph glyph-name="U" unicode="U" horiz-adv-x="1507" 
d="M74 719q0 -276 51 -381q72 -174 235.5 -263t395.5 -89q479 0 628 352q54 117 54 381v815h-387v-899q0 -211 -60 -264q-51 -72 -235 -78q-184 6 -238 78q-27 23 -45 91q-18 69 -18 179v893h-381v-815z" />
    <glyph glyph-name="V" unicode="V" horiz-adv-x="1503" 
d="M0 1534l485 -1534h535l483 1534h-432l-319 -1085l-320 1085h-432z" />
    <glyph glyph-name="W" unicode="W" horiz-adv-x="2091" 
d="M0 1534l410 -1534h458l176 719l181 -719h456l408 1534h-430l-229 -969l-211 969h-345l-210 -969l-232 969h-432z" />
    <glyph glyph-name="X" unicode="X" horiz-adv-x="1466" 
d="M55 0h459l215 573l213 -573h459l-361 788l346 746h-446l-211 -535l-211 535h-444l344 -746z" />
    <glyph glyph-name="Y" unicode="Y" horiz-adv-x="1280" 
d="M6 1534l416 -1057l-191 -477h431l612 1534h-428l-205 -633l-205 633h-430z" />
    <glyph glyph-name="Z" unicode="Z" horiz-adv-x="1310" 
d="M25 0h1173l43 307h-614l663 1227h-1140l-31 -297h579z" />
    <glyph glyph-name="bracketleft" unicode="[" horiz-adv-x="638" 
d="M72 -133h497v133h-217v1460h217v131h-497v-1724z" />
    <glyph glyph-name="backslash" unicode="\" horiz-adv-x="1153" 
d="M2 1421l883 -1421h264l-885 1421h-262z" />
    <glyph glyph-name="bracketright" unicode="]" horiz-adv-x="649" 
d="M72 0v-131h497v1724h-497v-133h217v-1460h-217z" />
    <glyph glyph-name="asciicircum" unicode="^" horiz-adv-x="1329" 
d="M61 811h306l288 571h9l288 -571h316l-465 862h-281z" />
    <glyph glyph-name="underscore" unicode="_" horiz-adv-x="1222" 
d="M78 0h1071v285h-1071v-285z" />
    <glyph glyph-name="a" unicode="a" 
d="M61 307q0 -111 60 -203q89 -116 239 -116h29q146 0 301 80q5 -36 10 -48q0 -1 0.5 -2t1.5 -3.5t2 -4.5q1 -7 3 -10h278v672q0 44 -1 73.5t-5.5 69t-13 65.5t-24.5 57.5t-38.5 52t-56 41.5t-76.5 32.5t-101 19t-128 7.5h-338l-31 -279h315q89 0 127 -27q33 -16 33 -131
v-37h-158q-232 0 -288 -38q-140 -65 -140 -263v-8zM399 315q0 41 17 58q20 20 119 20h112v-123q-97 -45 -155 -45q-93 0 -93 90z" />
    <glyph glyph-name="b" unicode="b" horiz-adv-x="1110" 
d="M68 31q236 -45 446 -45q297 0 420 114q60 60 72 101q38 62 38 329v109q0 255 -38 317q-71 152 -361 152q-119 0 -242 -41v526l-335 -59v-1503zM403 268v510q74 45 158 45h51q95 -21 95 -123v-278q0 -39 -9 -66q-24 -94 -170 -94h-26z" />
    <glyph glyph-name="c" unicode="c" horiz-adv-x="980" 
d="M72 510q0 -195 37 -272q108 -252 454 -252q92 0 166 10q180 27 180 37v270h-2q-207 -39 -286 -39h-25q-120 0 -158 47q-30 24 -30 162v139q0 151 34 172q41 41 160 41q115 0 307 -37v273q-175 45 -346 45q-310 0 -430 -203q-61 -85 -61 -319v-74z" />
    <glyph glyph-name="d" unicode="d" horiz-adv-x="1116" 
d="M68 530q0 -264 41 -329q12 -41 69 -101q123 -114 420 -114q191 0 449 43v1564l-334 -59q-2 -138 -2 -268v-2l-2 -197q-120 38 -240 41q-292 0 -360 -152q-41 -71 -41 -317v-109zM406 424v274q0 105 98 123l24 2h25q82 0 156 -47v-510l-99 -4h-22q-147 0 -174 94
q-8 34 -8 68z" />
    <glyph glyph-name="e" unicode="e" horiz-adv-x="1097" 
d="M76 430q0 -106 39 -201q105 -243 465 -243q139 0 247 12q172 27 172 33v274h-2q-186 -39 -368 -39h-27q-62 0 -121 15q-67 24 -67 135v33h612v194q0 161 -39 246q-102 221 -440 221q-122 0 -230 -35q-241 -94 -241 -383v-262zM414 676v51q0 65 32.5 96t102.5 31
q52 0 90 -25q49 -21 49 -135v-18h-274z" />
    <glyph glyph-name="f" unicode="f" horiz-adv-x="854" 
d="M63 809h164v-809h334v809h227l31 281h-258v127q0 66 19.5 93t83.5 27h151v279h-254q-85 0 -158 -29q-176 -71 -176 -330v-167h-164v-281z" />
    <glyph glyph-name="g" unicode="g" horiz-adv-x="1126" 
d="M72 465q0 -256 41 -315q71 -152 360 -152q100 0 176 18q40 9 68 21v-37q0 -50 -15 -82t-45.5 -46t-59 -18t-73.5 -4h-26q-188 0 -367 37l-2 -2v-270q0 -6 172 -33q105 -12 244 -12q361 0 469 246q28 71 37 145v39q0 13 2 27v1069h-279q-5 -20 -6 -23q-8 -21 -8 -47
q-152 81 -302 81q-73 0 -151 -20q-90 -29 -136 -89q-36 -47 -58 -95q-23 -50 -32 -123.5t-9 -206.5v-108zM410 406v260q0 32 10 63q23 83 127 83q19 0 41 -3q14 -3 37 -6q56 -15 92 -27v-448q-82 -49 -162 -49h-20l-27 4q-98 18 -98 123z" />
    <glyph glyph-name="h" unicode="h" horiz-adv-x="1118" 
d="M70 -2h338v776q83 47 155 47h23l30 -2q93 -18 93 -123v-698h340v639q0 259 -39 315q-71 152 -363 152q-119 0 -239 -41v528l-338 -57v-1536z" />
    <glyph glyph-name="i" unicode="i" horiz-adv-x="466" 
d="M59 1366q0 -87 37 -121q44 -35 140 -35q98 0 133 35q43 34 43 121q0 89 -43 123q-35 35 -133 35q-96 0 -140 -35q-37 -34 -37 -123zM66 0v1090h337v-1090h-337z" />
    <glyph glyph-name="j" unicode="j" horiz-adv-x="743" 
d="M27 -147l92 -5h26q28 0 45 1t48.5 9t49.5 22.5t33 45t15 74.5v1090h336v-1078q0 -19 -4 -51q-12 -94 -35 -145q-108 -248 -465 -248q-57 0 -141 4v281zM328 1366q0 -87 43 -121q35 -35 133 -35q100 0 135 35q41 36 41 121q0 87 -41 123q-35 35 -135 35q-98 0 -133 -35
q-43 -34 -43 -123z" />
    <glyph glyph-name="k" unicode="k" horiz-adv-x="1136" 
d="M72 0h336v508h2l305 -508h362l-334 563l334 529h-362l-305 -482h-2v983l-336 -59v-1534z" />
    <glyph glyph-name="l" unicode="l" horiz-adv-x="688" 
d="M72 440q0 -29 2 -53q4 -63 35 -141q111 -252 466 -252q40 0 82 2v283q-122 0 -176 14q-71 24 -71 135v1167l-338 -59v-1096z" />
    <glyph glyph-name="m" unicode="m" horiz-adv-x="1771" 
d="M72 0h336v778h2q53 33 143 47q5 1 18 1q20 0 47 -3q95 -21 95 -123v-700h340v778q86 49 166 49q25 0 45 -4q94 -21 94 -123v-700h340v639q0 253 -43 317q-64 154 -359 154q-142 0 -346 -74q-2 2 -6 2q-86 71 -232 71q-5 -1 -16 -1h-18q-40 -2 -59 -5q-58 -7 -102 -21
q-40 -13 -76 -29q-28 -12 -48 -23q-11 -6 -12 -6q-1 4 -21 51q-3 6 -6 11l-6 10h-276v-1096z" />
    <glyph glyph-name="n" unicode="n" horiz-adv-x="1118" 
d="M68 0h335v778q57 34 144 47q5 1 18 1q20 0 47 -3q97 -22 97 -123v-700h338v639q0 132 -9 204t-32 113q-54 88 -125 120q-69 31 -169 31h-6q-21 0 -32 -1q-96 -5 -171 -30q-67 -23 -103 -42q-22 -12 -23 -12q-1 4 -21 51l-10 21h-278v-1094z" />
    <glyph glyph-name="o" unicode="o" horiz-adv-x="1034" 
d="M27 428q0 -134 47 -223q104 -219 438 -219q152 0 266 47q226 99 226 413v201q0 117 -27 199q-100 262 -445 262h-32q-91 0 -197 -31q-276 -89 -276 -409v-240zM365 406v274q0 41 10 70q37 73 127 73h26q44 0 66 -12q74 -21 74 -152v-223q0 -24 -1 -39t-1 -30
q-27 -103 -146 -103h-8q-147 0 -147 142z" />
    <glyph glyph-name="p" unicode="p" horiz-adv-x="1118" 
d="M70 -494l338 62v467q32 -12 67 -21q88 -20 174 -20q295 0 359 153q41 71 41 318v106q0 219 -41 330q-67 142 -195 184q-69 22 -145 22q-143 0 -303 -83q-5 33 -11 49q-1 3 -6 23h-278v-1590zM408 326v446q26 10 90 27q23 3 37 6q23 3 41 3q99 0 124 -83q9 -24 9 -68v-254
q0 -101 -95 -122l-28 -2h-21q-74 0 -157 47z" />
    <glyph glyph-name="q" unicode="q" horiz-adv-x="1134" 
d="M74 465q0 -250 43 -320q67 -151 358 -151q88 0 176 20q41 10 66 21v-531l340 62v1530h-279q-5 -20 -6 -23q-7 -24 -10 -49q-160 83 -305 83q-77 0 -146 -22q-87 -26 -136 -89q-36 -46 -58 -95q-25 -54 -34 -125t-9 -207v-104zM416 401v256q0 42 8 68q19 83 129 83
q26 0 78 -9q72 -19 86 -25v-450q-79 -45 -156 -45h-20l-29 2q-96 21 -96 120z" />
    <glyph glyph-name="r" unicode="r" horiz-adv-x="817" 
d="M72 0h334v741q146 54 206 66l23 4q52 11 108 11q23 0 35 -1l-33 289q-133 -7 -290 -61q-60 -21 -78 -29q-8 29 -19 55q-9 18 -10 25h-276v-1100z" />
    <glyph glyph-name="s" unicode="s" horiz-adv-x="1007" 
d="M45 755q0 -129 80 -200q81 -77 253 -120q7 -2 36 -9t38 -9.5t32.5 -9t34 -10t26.5 -9t26.5 -11t18.5 -11.5q28 -21 18 -51q-16 -35 -90 -45q-40 -4 -82 -4q-47 0 -96 5q-169 19 -285 44l31 -292q191 -37 418 -37q33 1 75 5q90 6 163 32q90 30 144 91q64 73 77 183
q2 30 2 43q0 60 -14 105.5t-62 93.5q-70 66 -247 112q-7 2 -26.5 7t-27 7t-25 6.5t-25.5 7t-23 7t-23 7.5t-19.5 7t-19 8t-15.5 8.5t-14 8.5q-31 22 -18 53q23 52 174 52q18 0 58 -2q167 -12 277 -37l-30 288q-167 28 -317 28q-62 0 -134 -5q-100 -9 -164 -32
q-96 -34 -145 -91q-65 -74 -78 -186q-2 -26 -2 -38z" />
    <glyph glyph-name="t" unicode="t" horiz-adv-x="905" 
d="M76 811h164v-209v-63q0 -51 2 -109v-36v-15q0 -82 16 -142q16 -66 37.5 -105t60.5 -65q45 -30 77 -43.5t87 -19.5q69 -8 192 -8h33h80v246q-3 0 -37 2q-90 8 -139 30q-23 8 -36 19q-28 21 -33 55q-6 32 -6 76v387h223l34 281h-257v329l-334 -57v-272h-164v-281z" />
    <glyph glyph-name="u" unicode="u" horiz-adv-x="1142" 
d="M74 461q0 -132 9 -203.5t32 -118.5q57 -90 129 -121.5t179 -32.5q21 0 32 1q57 2 114 15q79 17 155 52q33 15 34 15q5 -21 18 -50l12 -18h281v1092h-342v-773q-66 -42 -147 -47q-5 -1 -18 -1q-21 0 -48 3q-98 21 -98 125v693h-342v-631z" />
    <glyph glyph-name="v" unicode="v" horiz-adv-x="1191" 
d="M0 1092l387 -1092h430l375 1092h-365l-227 -734l-233 734h-367z" />
    <glyph glyph-name="w" unicode="w" horiz-adv-x="1714" 
d="M25 1090l319 -1090h367l145 483l141 -483h369l320 1090h-347l-174 -687l-159 687h-301l-160 -687l-176 687h-344z" />
    <glyph glyph-name="x" unicode="x" horiz-adv-x="1165" 
d="M45 0h381l162 385l162 -385h376l-297 563l283 527h-369l-155 -367l-160 367h-369l285 -527z" />
    <glyph glyph-name="y" unicode="y" horiz-adv-x="1282" 
d="M37 1090l452 -1090q0 -115 -71 -133q-57 -19 -119 -19h-23q-7 0 -94 5v-281q76 -4 140 -4q160 0 266 45q45 21 81 50.5t62 61t50.5 78.5t42 89.5t40.5 107.5q9 26 42 117q36 104 81 230q96 271 140 392q72 198 124 351h-368l-217 -674l-254 674h-375z" />
    <glyph glyph-name="z" unicode="z" horiz-adv-x="1062" 
d="M29 0h938l30 279h-422l465 811h-907l-39 -283h428z" />
    <glyph glyph-name="braceleft" unicode="{" horiz-adv-x="870" 
d="M63 524q32 -6 61 -16t60 -28.5t49.5 -49t18.5 -70.5q0 -277 31 -475q24 -156 80 -256q21 -38 52.5 -65t61.5 -39q57 -23 130 -15q108 9 130 9h6l21 202q-10 0 -34 -3q-13 -2 -39 -5q-18 -1 -40.5 8.5t-36.5 28.5q-42 57 -61 172q-25 152 -25 400q0 94 -32 150.5t-80 74.5
q112 60 112 225q0 139 7 236q13 196 46 276q18 44 33.5 63.5t38.5 27.5q32 7 38.5 6.5t38.5 -5.5q20 -4 34 -4l-21 209h-6q-19 0 -77 5q-38 0 -83 5q-75 9 -159 -52q-74 -55 -119 -243q-47 -194 -47 -559q0 -40 -19 -71.5t-50 -50t-60 -29t-60 -15.5v-47z" />
    <glyph glyph-name="bar" unicode="|" horiz-adv-x="430" 
d="M94 -121h246v1655h-246v-1655z" />
    <glyph glyph-name="braceright" unicode="}" horiz-adv-x="851" 
d="M92 -274l21 -209h6q20 0 131 -9q74 -8 130 15q74 32 113 105q58 107 81 257q30 192 30 475q0 41 18.5 72t49.5 49.5t60 28.5t61 16v47q-30 4 -59 13t-60 27t-50.5 50t-19.5 74q0 283 -30 475q-24 153 -81 257q-20 37 -51.5 64t-61.5 40q-54 22 -130 16q-92 -10 -131 -10
h-6l-21 -203q13 0 34 4q6 1 19.5 2.5t19.5 2.5q17 2 40 -8t37 -29q43 -58 62 -172q24 -146 24 -400q0 -96 31.5 -152.5t80.5 -72.5q-112 -57 -112 -225q0 -196 -16 -342q-12 -107 -42 -186q-22 -53 -58 -73q-31 -17 -63 -9q-50 9 -57 10z" />
    <glyph glyph-name="asciitilde" unicode="~" horiz-adv-x="1327" 
d="M66 352h299q15 154 104 154q28 0 52 -7q32 -9 108 -48q55 -22 91 -34q97 -34 193 -34q360 0 347 430h-295q-10 -88 -32.5 -118.5t-74.5 -30.5q-25 0 -64 13q-24 8 -74 31q-7 3 -16 7t-15 6.5t-9 3.5q-147 68 -272 68q-164 0 -256.5 -116.5t-85.5 -324.5z" />
    <glyph glyph-name="uni00A0" unicode="&#xa0;" horiz-adv-x="827" 
 />
    <glyph glyph-name="exclamdown" unicode="&#xa1;" horiz-adv-x="530" 
d="M86 8l39 1014h283l43 -1014h-365zM92 1268q0 -88 41 -121q39 -39 131 -39q102 0 139 39q39 35 39 121q0 87 -38 121t-140 34q-94 0 -131 -34q-41 -33 -41 -121z" />
    <glyph glyph-name="cent" unicode="&#xa2;" horiz-adv-x="1024" 
d="M66 516q0 -200 36 -274q95 -209 353 -246v-207h235v199q11 0 27.5 2t32 4t18.5 2q190 24 190 35v274h-2q-198 -39 -307 -39h-24q-75 0 -133.5 12t-75.5 33q-29 23 -29 164v139q0 154 33 174q21 18 80.5 29.5t130.5 11.5q137 0 327 -38v276q-119 29 -268 39v199h-235v-205
q-222 -35 -324 -193q-65 -89 -65 -323v-68z" />
    <glyph glyph-name="sterling" unicode="&#xa3;" horiz-adv-x="1259" 
d="M70 0h1118v293h-651v4q75 63 118 166q26 75 23 168h303v239h-336q-27 106 -27 181q0 98 57.5 155.5t172.5 57.5q59 0 160 -22t157 -44l-32 291q-127 59 -304 59q-250 0 -402.5 -133t-152.5 -350q0 -116 17 -195h-197v-239h244q4 -19 4 -94q0 -107 -80 -205t-192 -144
v-188z" />
    <glyph glyph-name="currency" unicode="&#xa4;" horiz-adv-x="1333" 
d="M70 1030l198 -162q-80 -107 -80 -250q0 -157 82 -249l-190 -170l147 -148l170 189q109 -82 267 -82q69 0 141 23.5t125 64.5l168 -195l149 148l-194 172q82 104 82 256q0 125 -74 241l199 164l-154 148l-174 -179q-107 74 -268 74q-154 0 -263 -76l-176 181zM451 621
q0 107 59.5 173t153.5 66q92 0 151 -65t59 -168q0 -116 -62 -185t-148 -69q-88 0 -150.5 66.5t-62.5 181.5z" />
    <glyph glyph-name="yen" unicode="&#xa5;" horiz-adv-x="1337" 
d="M6 1534l418 -905h-184v-154h196v-78h-196v-151h196l-4 -246h449v246h196v151h-196v78h196v154h-180l432 905h-448l-217 -576l-215 576h-443z" />
    <glyph glyph-name="section" unicode="&#xa7;" horiz-adv-x="1425" 
d="M123 1169q-23 -173 90 -268q4 -2 5 -4t5 -4q-29 -26 -41 -47q-179 -261 -6 -416q52 -42 121 -68q26 -13 53 -23q53 -21 108 -35q67 -17 109 -26q44 -10 49 -12q112 -28 158 -47q52 -19 73.5 -31t29.5 -32q19 -28 4 -68q-37 -82 -267 -82q-226 0 -479 47l37 -278
q16 -8 53 -13q127 -21 404 -32h16q44 0 57 4q69 0 89 4q160 10 274 55q100 41 155 111t72 178q8 57 -5 131q-14 76 -85 137q-3 3 -5 7l-1 3q15 15 33 46q66 82 89 185q13 59 -7.5 119t-75.5 109q-65 49 -121 70q-18 9 -39 18q-39 17 -80 30q-50 16 -84 24q-15 3 -36.5 8.5
t-44.5 10.5q-21 5 -37 9q-5 1 -23 5.5l-30 7.5q-72 16 -107 26q-83 27 -98 68q-22 28 -7 67q19 41 85 61q63 19 184 19q110 0 247.5 -16t229.5 -35l-33 287q-7 1 -24 3q-17 1 -25 3v4q-218 29 -414 29h-65q-7 0 -92 -5q-178 -10 -275 -55q-199 -76 -223 -289zM467 678
q6 32 61 78q129 -19 266 -52.5t179 -74.5q25 -31 16 -70q-21 -53 -67 -74q-128 17 -193 41q-205 37 -246 86q-31 31 -16 66z" />
    <glyph glyph-name="copyright" unicode="&#xa9;" horiz-adv-x="1050" 
d="M78 618q0 -185 129.5 -315.5t314.5 -130.5q182 0 312.5 131t130.5 315q0 120 -60 222q-60 103 -162 162t-221 59q-185 0 -314.5 -129.5t-129.5 -313.5zM152 618q0 152 108 259.5t262 107.5t261.5 -107.5t107.5 -259.5q0 -154 -107.5 -262t-261.5 -108t-262 108t-108 262z
M307 600q0 -93 19 -119q20 -58 71 -84t142 -26q52 0 82 2q61 10 69 10v86q-66 -12 -123 -12h-12q-80 0 -102 28q-25 22 -25 97v69q0 76 27 101.5t102 25.5q29 0 133 -14v84q-61 16 -151 16q-150 0 -203 -86v-2h-2q-27 -32 -27 -137v-39z" />
    <glyph glyph-name="guillemotleft" unicode="&#xab;" horiz-adv-x="1644" 
d="M63 541l482 -615h428l-488 615l488 612h-428zM676 541l481 -615h428l-487 615l487 612h-428z" />
    <glyph glyph-name="uni00AD" unicode="&#xad;" horiz-adv-x="1083" 
d="M82 408h924v280h-924v-280z" />
    <glyph glyph-name="registered" unicode="&#xae;" horiz-adv-x="1044" 
d="M80 1174q0 -185 130 -316t314 -131t314.5 131t130.5 316q0 183 -130.5 312.5t-314.5 129.5t-314 -129.5t-130 -312.5zM154 1174q0 152 108.5 259t261.5 107q154 0 261.5 -107t107.5 -259q0 -154 -107.5 -262.5t-261.5 -108.5q-152 0 -261 108.5t-109 262.5zM332 918h108
v200h58q50 -5 74.5 -21.5t33.5 -54.5q12 -60 37 -124h111q-8 14 -28 87q-14 45 -19 60q-9 36 -25.5 52.5t-54.5 31.5v2q106 30 106 152q0 30 -15 59t-36 45q-58 43 -182 43q-104 0 -168 -12v-520zM440 1188v186q11 0 26 1q14 1 44 1q108 0 117 -86q6 -41 -26.5 -71.5
t-92.5 -30.5h-68z" />
    <glyph glyph-name="degree" unicode="&#xb0;" horiz-adv-x="872" 
d="M74 1073q0 -142 99.5 -236t262.5 -94q160 0 258.5 97t98.5 245q0 151 -94.5 245.5t-260.5 94.5q-170 0 -267 -97.5t-97 -254.5zM293 1085q0 68 37.5 116t99.5 48q63 0 102 -47.5t39 -116.5q0 -71 -37 -116t-100 -45q-65 0 -103 45t-38 116z" />
    <glyph glyph-name="plusminus" unicode="&#xb1;" horiz-adv-x="1224" 
d="M86 -111v281h1061v-281h-1061zM86 653h389v-389h283v389h389v281h-389v387h-283v-387h-389v-281z" />
    <glyph glyph-name="uni00B5" unicode="&#xb5;" horiz-adv-x="1118" 
d="M70 -412h340v410q8 0 15 1t19 1q58 2 113 15q76 17 149 53l33 16q1 -4 21 -51q5 -8 10 -19h279v1076h-336v-762q-70 -42 -146 -47q-32 -3 -65 4q-92 18 -92 123v682h-340v-1502z" />
    <glyph glyph-name="paragraph" unicode="&#xb6;" horiz-adv-x="1572" 
d="M78 1196q1 -96 41 -181q68 -147 232 -237q142 -78 274 -78h14v-813h307v1659h230v-1659h315v1872q-163 29 -463 29q-162 0 -297 -18q-252 -35 -405 -127q-138 -84 -199 -208q-54 -107 -49 -239z" />
    <glyph glyph-name="guillemotright" unicode="&#xbb;" horiz-adv-x="1662" 
d="M76 -72h428l481 613l-481 614h-428l487 -614zM688 -72h428l481 613l-481 614h-428l488 -614z" />
    <glyph glyph-name="questiondown" unicode="&#xbf;" horiz-adv-x="1069" 
d="M70 426v10q3 148 34 211q105 224 443 230v147h334v-430q-164 31 -258 31h-29q-121 0 -156 -41q-30 -21 -30 -150q0 -128 34 -149q34 -37 160 -37q117 -2 395 47l-26 -246q-203 -51 -410 -51q-297 0 -432 180q-56 80 -59 248zM535 1268q0 -87 40 -121q35 -39 136 -39
q96 0 135 36t39 124t-35 121q-43 34 -139 34q-97 0 -136.5 -34.5t-39.5 -120.5z" />
    <glyph glyph-name="Agrave" unicode="&#xc0;" horiz-adv-x="1550" 
d="M6 0l557 1534h428l557 -1534h-432l-72 236h-534l-72 -236h-432zM408 1987l274 -367h180l-200 367h-254zM582 518h389l-195 660z" />
    <glyph glyph-name="Aacute" unicode="&#xc1;" horiz-adv-x="1550" 
d="M4 0l559 1534h430l555 -1534h-432l-72 236h-534l-72 -236h-434zM582 518h391l-197 660zM688 1620h182l277 367h-256z" />
    <glyph glyph-name="Acircumflex" unicode="&#xc2;" horiz-adv-x="1550" 
d="M4 0h432l72 236h532l72 -236h434l-557 1534h-430zM438 1620h221l115 141l117 -141h219l-219 287h-232zM578 518l196 660l195 -660h-391z" />
    <glyph glyph-name="Atilde" unicode="&#xc3;" horiz-adv-x="1550" 
d="M4 0l557 1534h430l555 -1534h-432l-70 236h-534l-74 -236h-432zM453 1604h163q6 79 54 79q8 0 22 -2q11 -2 39 -13q6 -3 15.5 -6.5t11.5 -4.5q1 -1 23 -9q13 -5 25 -9q15 -5 23 -7q19 -7 27 -8q26 -6 57 -6q98 0 144.5 56t42.5 177h-158q-4 -47 -16.5 -63t-42.5 -16
q-18 0 -38 8t-39 17q-35 15 -46 19l-13.5 4.5t-11.5 4t-6 1.5t-11 3t-15 4q-29 8 -64 8q-91 0 -141.5 -62.5t-44.5 -174.5zM580 518h391l-195 660z" />
    <glyph glyph-name="Adieresis" unicode="&#xc4;" horiz-adv-x="1548" 
d="M2 0l555 1534h430l557 -1534h-434l-72 236h-534l-72 -236h-430zM399 1794q0 -71 33 -100t109 -29q82 0 110 31q33 24 33 98q0 72 -33 96q-29 29 -110 29q-76 0 -109 -28t-33 -97zM575 518h392l-195 660zM860 1794q0 -74 33 -98q31 -31 108 -31q81 0 109 31q35 26 35 98
q0 70 -35 96q-29 29 -109 29q-76 0 -108 -29q-33 -24 -33 -96z" />
    <glyph glyph-name="Aring" unicode="&#xc5;" horiz-adv-x="1556" 
d="M4 0h436l70 238h534l70 -238h436l-559 1534h-428zM547 1780q0 -83 64.5 -139t168.5 -56q103 0 166.5 56t63.5 141q0 93 -59.5 149t-168.5 56q-111 0 -173 -56.5t-62 -150.5zM582 520l198 660l195 -660h-393zM690 1782q0 42 24 72t62 30q43 0 67.5 -29t24.5 -73
q0 -41 -24 -66.5t-66 -25.5q-40 0 -64 26.5t-24 65.5z" />
    <glyph glyph-name="AE" unicode="&#xc6;" horiz-adv-x="2101" 
d="M4 0h461l145 236h529v-236h891v301h-502v332h368l33 282h-401v322h502v297h-1006zM764 518l375 612v-612h-375z" />
    <glyph glyph-name="Ccedilla" unicode="&#xc7;" horiz-adv-x="1222" 
d="M74 719q0 -283 51 -381q133 -306 502 -346l-62 -137q73 -10 109 -26q33 -17 33 -42q0 -47 -66 -47q-47 0 -100 27l-35 -111q58 -35 151 -35q57 0 103 15q50 16 82 56.5t32 98.5q0 55 -36 91.5t-97 49.5l29 54q127 0 219 14q87 10 160 25v303q-224 -35 -322 -35h-34
q-216 0 -273 78q-63 63 -63 258v235q0 121 20 203q19 78 51 96q62 72 273 72q126 0 348 -37v303q-187 41 -385 41q-439 0 -602 -280q-88 -112 -88 -443v-100z" />
    <glyph glyph-name="Egrave" unicode="&#xc8;" horiz-adv-x="1038" 
d="M74 0v1534h893v-297h-502v-322h397l-33 -282h-364v-336h502v-297h-893zM193 1985l276 -363h180l-200 363h-256z" />
    <glyph glyph-name="Eacute" unicode="&#xc9;" horiz-adv-x="1038" 
d="M74 0h893v297h-502v336h364l33 282h-397v322h502v297h-893v-1534zM424 1622h180l279 363h-258z" />
    <glyph glyph-name="Ecircumflex" unicode="&#xca;" horiz-adv-x="1038" 
d="M76 0h891v297h-498v336h365l32 282h-397v322h498v297h-891v-1534zM186 1622h224l110 137l117 -137h221l-221 285h-227z" />
    <glyph glyph-name="Edieresis" unicode="&#xcb;" horiz-adv-x="1038" 
d="M74 0v1534h891v-299h-500v-322h401l-35 -278h-366v-338h500v-297h-891zM141 1790q0 -70 33 -94q32 -33 111 -33q73 0 106 33q35 26 35 94q0 72 -35 98q-32 29 -106 29q-82 0 -111 -29q-33 -24 -33 -98zM600 1790q0 -68 35 -94q32 -33 106 -33q75 0 110.5 30.5t35.5 96.5
q0 69 -34 98t-112 29q-77 0 -106 -29q-35 -26 -35 -98z" />
    <glyph glyph-name="Igrave" unicode="&#xcc;" horiz-adv-x="638" 
d="M-2 1989l281 -365h180l-203 365h-258zM172 0h395v1534h-395v-1534z" />
    <glyph glyph-name="Iacute" unicode="&#xcd;" horiz-adv-x="651" 
d="M72 0h395v1534h-395v-1534zM190 1624h185l274 365h-256z" />
    <glyph glyph-name="Icircumflex" unicode="&#xce;" horiz-adv-x="753" 
d="M39 1622h223l115 141l112 -141h224l-224 287h-227zM178 0h395v1534h-395v-1534z" />
    <glyph glyph-name="Idieresis" unicode="&#xcf;" horiz-adv-x="815" 
d="M35 1790q0 -69 33 -96q31 -31 108 -31q76 0 107 31q36 27 36 96q0 72 -36 98q-29 29 -107 29q-79 0 -108 -29q-33 -24 -33 -98zM209 0v1534h391v-1534h-391zM492 1790q0 -69 34 -96q32 -31 111 -31q76 0 107.5 29.5t31.5 97.5q0 73 -31 98q-29 29 -108 29t-111 -29
q-34 -25 -34 -98z" />
    <glyph glyph-name="Eth" unicode="&#xd0;" horiz-adv-x="1574" 
d="M8 666h225v-672q8 0 20 -0.5t30.5 -1t32.5 -0.5t44 -0.5t41 -1.5q185 -4 418 -4q499 0 631 344q51 132 51 383v96q0 290 -86 444q-150 281 -598 281q-2 0 -16 -0.5t-43.5 -1t-63.5 -0.5q-156 -2 -198 -2q-106 -2 -263 -2v-678h-225v-184zM614 295v371h215v184h-215v367
q85 8 166 8q108 0 170 -14t102.5 -56.5t54 -110.5t13.5 -186v-235q0 -191 -61 -261q-61 -75 -268 -75h-41q-67 0 -136 8z" />
    <glyph glyph-name="Ntilde" unicode="&#xd1;" horiz-adv-x="1378" 
d="M63 0v1534h394l465 -809v809h393v-1534h-393l-465 817v-817h-394zM365 1604h163q6 79 56 79q8 0 22 -2q11 -2 39 -13q4 -2 25 -11q1 -1 23 -9q13 -5 25 -9q15 -5 23 -7q19 -7 27 -8q26 -6 57 -6q98 0 145.5 56t43.5 177h-160q-6 -47 -18 -63t-41 -16q-11 0 -22 4
q-10 3 -48 19q-22 10 -54 21l-12 4t-11 3.5t-7 2.5q-1 0 -26 7q-26 8 -64 8q-91 0 -141.5 -62.5t-44.5 -174.5z" />
    <glyph glyph-name="Ograve" unicode="&#xd2;" horiz-adv-x="1411" 
d="M27 715v100q0 327 84 445q77 124 204 198q159 84 392 84q228 0 387 -84q131 -72 206 -198q84 -118 84 -445v-100q0 -269 -49 -377q-150 -348 -628 -354q-233 3 -392 86q-170 101 -239 268q-49 102 -49 377zM344 1982l277 -364h178l-201 364h-254zM412 635q0 -226 59 -264
q46 -73 236 -76q183 3 235 76q26 19 46 91q18 71 18 181v234q0 123 -19 195q-19 73 -51 91q-60 63 -229 72q-170 -6 -230 -72q-65 -38 -65 -295v-233z" />
    <glyph glyph-name="Oacute" unicode="&#xd3;" horiz-adv-x="1419" 
d="M27 715v100q0 327 88 445q75 126 200 198q167 84 392 84q232 0 391 -84q134 -75 200 -198q91 -119 91 -445v-100q0 -272 -52 -377q-69 -167 -239 -268q-158 -83 -391 -86q-230 3 -392 86q-167 99 -237 268q-51 114 -51 377zM408 643q0 -111 18 -181q18 -72 45 -91
q52 -73 236 -76q184 3 235 76q57 47 57 264v233q0 122 -17 201q-18 76 -46 94q-60 66 -229 72q-168 -6 -228 -72q-32 -18 -51 -91q-20 -75 -20 -195v-234zM612 1618h183l274 364h-254z" />
    <glyph glyph-name="Ocircumflex" unicode="&#xd4;" horiz-adv-x="1419" 
d="M31 715q0 -268 53 -379q74 -179 238 -268q156 -81 391 -84q241 3 396.5 87.5t231.5 264.5q50 114 50 379v98q0 327 -84 449q-76 129 -205 196q-155 86 -389 86q-233 0 -391 -86q-125 -63 -203 -196q-88 -112 -88 -449v-98zM375 1622h221l115 137l116 -137h220l-220 285
h-231zM412 641v240q0 119 21 192q19 73 52 96q57 60 228 66q167 -6 227 -66q30 -21 48 -98q18 -78 18 -199v-239q0 -219 -58 -262q-54 -72 -235 -78q-190 6 -236 78q-28 19 -46 90q-19 67 -19 180z" />
    <glyph glyph-name="Otilde" unicode="&#xd5;" horiz-adv-x="1425" 
d="M31 717v100q0 326 86 445q165 279 596 284q431 -5 596 -284q86 -119 86 -445v-100q0 -272 -52 -377q-76 -181 -239 -270q-159 -84 -391 -84q-484 0 -631 354q-51 105 -51 377zM389 1604h164q6 79 55 79q7 0 21 -2q15 -4 39 -13q7 -4 26 -11q9 -3 20 -7q15 -8 21 -9
q2 -1 9 -3.5t11 -3.5q13 -4 23 -6q3 0 9.5 -2t11.5 -3q21 -5 51 -5q98 0 145 56t43 177h-159q-6 -47 -18.5 -63t-41.5 -16q-25 0 -63 19q-18 9 -59 24q-18 7 -57 18q-27 8 -65 8q-91 0 -141.5 -62.5t-44.5 -174.5zM412 643q0 -112 19 -181q20 -71 46 -93q50 -68 236 -74
q185 6 235 74q60 47 60 266v235q0 126 -18 202q-18 75 -48 95q-53 62 -229 68q-175 -6 -228 -68q-33 -20 -52 -93q-21 -74 -21 -195v-236z" />
    <glyph glyph-name="Odieresis" unicode="&#xd6;" horiz-adv-x="1427" 
d="M33 719v96q0 324 88 445q71 122 201 198q160 85 393 88q235 -3 389 -88q134 -78 203 -198q88 -118 88 -445v-96q0 -272 -52 -383q-141 -350 -628 -350q-239 0 -393 82q-164 92 -234 268q-55 109 -55 383zM342 1790q0 -74 33 -98q32 -29 108 -29q79 0 111 29q35 26 35 98
q0 70 -35 96q-31 31 -111 31q-77 0 -108 -31q-33 -24 -33 -96zM414 643q0 -111 18 -182q18 -73 45 -92q52 -70 238 -76q185 6 237 76q56 45 56 266v231q0 257 -64 297q-61 64 -229 70q-172 -6 -230 -70q-31 -19 -51 -93q-20 -75 -20 -196v-231zM803 1790q0 -73 31 -98
q32 -29 112 -29q78 0 107 29q32 24 32 98q0 72 -32 96q-28 31 -107 31q-81 0 -112 -31q-31 -25 -31 -96z" />
    <glyph glyph-name="multiply" unicode="&#xd7;" horiz-adv-x="1275" 
d="M76 199l219 -224l344 347l348 -347l221 224l-346 344l346 344l-221 221l-348 -346l-344 346l-219 -221l346 -344z" />
    <glyph glyph-name="Oslash" unicode="&#xd8;" horiz-adv-x="1724" 
d="M78 764q0 -472 270 -653l-98 -183l221 -123l117 207q119 -26 246 -26h59q301 0 473 118q281 182 281 660v24q-9 448 -275 631l103 185l-222 125l-116 -209q-119 26 -248 26h-51q-160 0 -288 -36q-244 -69 -359 -261q-108 -179 -113 -461v-24zM440 764v4q0 217 92 336v-2
q73 91 185 121q2 2 6 2q1 0 2.5 0.5t2.5 1.5t2 1t1.5 0.5t1.5 0.5h2q61 12 129 12h23q49 0 92 -8l-449 -803q-90 122 -90 334zM750 301l446 803q86 -110 86 -336v-4q0 -235 -96 -354t-299 -119q-2 -2 -6 -2h-17q-58 0 -114 12z" />
    <glyph glyph-name="Ugrave" unicode="&#xd9;" horiz-adv-x="1507" 
d="M72 715v819h387v-899q0 -218 53 -262q60 -72 240 -78q185 6 233 78q29 21 48 91q20 72 20 179v891h385v-819q0 -261 -70 -416t-225 -229q-162 -84 -391 -84q-238 0 -394 84q-157 82 -235 264q-51 111 -51 381zM393 1989l281 -365h176l-197 365h-260z" />
    <glyph glyph-name="Uacute" unicode="&#xda;" horiz-adv-x="1507" 
d="M72 715v819h381v-891q0 -109 18 -180t45 -90q54 -72 240 -78q185 6 233 78q62 41 62 262v899h389v-819q0 -263 -68 -416t-227 -229q-153 -84 -389 -84q-242 0 -398.5 84.5t-236.5 263.5q-49 125 -49 381zM655 1624h181l278 365h-256z" />
    <glyph glyph-name="Ucircumflex" unicode="&#xdb;" horiz-adv-x="1499" 
d="M68 715q0 -270 49 -381q75 -183 235 -264q159 -84 396 -84q236 0 388 81.5t240 266.5q51 117 51 381v819h-380v-891q0 -110 -18 -179q-19 -70 -46 -91q-46 -72 -235 -78q-192 6 -240 78q-59 45 -59 262v899h-381v-819zM408 1624h223l117 139l114 -139h219l-219 287h-231z
" />
    <glyph glyph-name="Udieresis" unicode="&#xdc;" horiz-adv-x="1523" 
d="M78 715v819h381v-891q0 -110 19 -179q18 -69 44 -91q46 -72 236 -78q183 6 237 78q60 43 60 262v899h385v-819q0 -267 -49 -381q-79 -182 -240 -264q-153 -84 -393 -84q-236 0 -389 84q-157 80 -240 264q-51 105 -51 381zM385 1794q0 -72 33 -96q37 -29 108 -29
q77 0 109 29q33 28 33 96q0 69 -32.5 99t-109.5 30q-74 0 -107.5 -29t-33.5 -100zM846 1794q0 -74 31 -96q32 -29 110 -29q81 0 112 27.5t31 97.5q0 72 -31 100.5t-112 28.5q-78 0 -110 -29q-31 -25 -31 -100z" />
    <glyph glyph-name="Yacute" unicode="&#xdd;" horiz-adv-x="1280" 
d="M6 1534h428l205 -633l205 633h430l-615 -1534h-426l189 477zM555 1618h180l277 364h-256z" />
    <glyph glyph-name="Thorn" unicode="&#xde;" horiz-adv-x="1437" 
d="M88 -96h399v348q100 -16 181 -16q116 0 217 21q215 45 340 183q135 148 135 400q0 115 -44.5 215t-125.5 172q-167 143 -488 143q-148 0 -215 -8v315h-399v-1773zM487 561v490q61 12 172 12q150 0 228 -64t78 -188q0 -125 -78.5 -193.5t-235.5 -68.5q-86 0 -164 12z" />
    <glyph glyph-name="germandbls" unicode="&#xdf;" horiz-adv-x="1329" 
d="M82 0h352v981q0 191 55 272.5t177 81.5q80 0 129 -49.5t49 -128.5q0 -47 -18 -91q-26 -60 -103 -137q-72 -72 -82 -120q-16 -83 32 -153q39 -57 99 -115l47 -47q45 -45 64.5 -79.5t19.5 -72.5q0 -51 -41.5 -82t-111.5 -31q-100 0 -168 33l-41 -252q83 -33 250 -33
q222 0 346.5 102t124.5 277q0 48 -12 95q-23 82 -73 147q-34 43 -98 107q-16 16 -26 25q-28 24 -41 38q-14 15 -14 37q0 10 6 22q2 8 23 25q59 48 100 106q63 89 59 226q-4 184 -143.5 296.5t-358.5 112.5q-166 0 -257 -28.5t-171 -100.5q-89 -79 -131.5 -202.5
t-42.5 -307.5v-954z" />
    <glyph glyph-name="agrave" unicode="&#xe0;" 
d="M59 307v8q0 199 138 263q64 40 292 40h156v37q0 115 -33 125q-38 29 -127 29h-317l29 283h342q317 0 397 -164q43 -92 43 -256v-672h-274q-2 3 -3 10l-4 10q-9 32 -10 48q-149 -80 -299 -80h-33q-150 0 -239 114q-58 88 -58 205zM172 1534l279 -365h180l-201 365h-258z
M397 315q0 -90 92 -90q70 0 156 43v125h-115q-99 0 -116 -20q-17 -17 -17 -58z" />
    <glyph glyph-name="aacute" unicode="&#xe1;" 
d="M59 307v8q0 198 140 263q58 40 288 40h158v37q0 113 -31 125q-44 29 -131 29h-315l31 283h342q318 0 395 -164q45 -88 45 -256v-672h-274l-4 10l-5 10q-9 32 -10 48q-149 -80 -301 -80h-31q-148 0 -237 114q-60 88 -60 205zM381 1169h182l277 365h-256zM395 315
q0 -90 92 -90q72 0 158 43v125h-113q-103 0 -120 -20q-17 -17 -17 -58z" />
    <glyph glyph-name="acircumflex" unicode="&#xe2;" 
d="M59 307v8q0 199 142 263q64 40 286 40h156v37q0 113 -31 125q-38 29 -129 29h-311l29 283h338q63 0 116 -5.5t93.5 -17.5t73.5 -26t56.5 -35.5t41.5 -42.5t29 -50.5t18 -54.5t10 -60t3.5 -62.5t0.5 -65.5v-672h-276q-2 3 -3 10l-4 10q-9 32 -10 48q-149 -80 -299 -80h-31
q-150 0 -239 114q-60 92 -60 205zM219 1192h219l115 139l117 -139h221l-221 285h-232zM397 315q0 -90 90 -90q71 0 156 43v125h-113q-99 0 -116 -20q-17 -17 -17 -58z" />
    <glyph glyph-name="atilde" unicode="&#xe3;" 
d="M63 307v8q0 198 140 263q64 40 291 40h157v35q0 114 -35 129q-38 27 -127 27h-315l31 281h340q88 0 157 -12t115 -30.5t78.5 -51.5t50 -64t27 -79.5t12 -86.5t2.5 -96v-670h-276q-2 3 -3 10t-3 10q-10 34 -11 48q-152 -80 -301 -80h-33q-149 0 -235 116q-62 89 -62 203z
M217 1174h164q6 81 53 81q8 0 22 -2q18 -5 40 -14q21 -9 53 -21q33 -12 60 -19q34 -9 71 -9q97 0 143.5 56t42.5 177h-159q-4 -47 -17 -63.5t-43 -16.5q-12 0 -23 4q-17 4 -48 18q-5 2 -13.5 5.5t-11.5 5.5q-96 37 -148 37q-91 0 -141.5 -63.5t-44.5 -175.5zM401 315
q0 -90 93 -90q72 0 157 45v121h-114q-99 0 -119 -20q-17 -25 -17 -56z" />
    <glyph glyph-name="adieresis" unicode="&#xe4;" 
d="M61 307v8q0 199 138 263q64 40 293 40h155v37q0 115 -33 125q-38 29 -127 29h-317l29 283h342q318 0 395 -164q46 -93 43 -256v-672h-272q-2 3 -3 10l-4 10q-9 32 -10 48q-149 -80 -303 -80h-31q-148 0 -237 114q-58 88 -58 205zM164 1327q0 -71 33 -98q32 -29 110 -29
q74 0 111 29q31 28 31 98t-31 98q-37 29 -111 29q-78 0 -110 -29q-33 -27 -33 -98zM399 315q0 -90 93 -90q69 0 155 43v125h-112q-102 0 -119 -20q-17 -17 -17 -58zM625 1327q0 -71 34 -98q29 -29 109 -29q79 0 109 28t30 99t-30 99t-109 28q-80 0 -109 -29q-34 -27 -34 -98
z" />
    <glyph glyph-name="aring" unicode="&#xe5;" 
d="M63 307q0 -119 58 -207q84 -112 235 -112h31q152 0 299 78q1 -16 10 -48q2 -3 3 -10t3 -10h281v674q0 164 -43 260q-82 160 -403 160h-336l-31 -283h311q95 0 129 -27q35 -12 35 -131v-33h-162q-228 0 -284 -43q-136 -58 -136 -260v-8zM315 1339q0 -85 64 -140.5
t168 -55.5t168.5 55.5t64.5 140.5q0 92 -61 147.5t-170 55.5q-107 0 -170.5 -56.5t-63.5 -146.5zM395 315q0 41 19 60q21 18 116 18h115v-123q-91 -45 -158 -45q-92 0 -92 90zM455 1339q0 43 23.5 72t66.5 29q40 0 65 -29.5t25 -71.5q0 -43 -23.5 -68.5t-64.5 -25.5
t-66.5 27t-25.5 67z" />
    <glyph glyph-name="ae" unicode="&#xe6;" horiz-adv-x="1673" 
d="M61 307q0 -115 58 -203q89 -116 239 -116h31q150 0 316 80q12 7 75 34q125 -116 377 -116q139 0 250 12q168 27 168 33v274h-4q-189 -39 -363 -39h-26q-37 0 -58 1.5t-50.5 9t-45 22.5t-27.5 44.5t-12 72.5v33h613v194q0 147 -37 246q-99 221 -441 221q-124 0 -229 -35
q-23 -10 -72 -35q-104 54 -280 54h-342l-31 -283h315q91 0 129 -29q33 -14 33 -127v-37h-158q-234 0 -290 -38q-138 -68 -138 -265v-8zM397 315q0 39 19 58q17 20 119 20h112v-123q-85 -45 -158 -45q-92 0 -92 90zM989 676v51q0 127 137 127q55 0 93 -25q47 -21 47 -135v-18
h-277z" />
    <glyph glyph-name="ccedilla" unicode="&#xe7;" horiz-adv-x="980" 
d="M70 557q0 -199 36 -272q94 -226 373 -250l-63 -135q80 -8 109 -23q32 -17 32 -45q0 -45 -63 -45q-54 0 -101 25l-35 -113q62 -35 152 -35q58 0 104 15q50 16 82.5 57t32.5 98t-36.5 95t-96.5 51l27 53q63 0 106 8q182 27 182 35v274h-2q-198 -39 -291 -39h-22
q-130 0 -158 45q-30 24 -30 164v139q0 151 34 172q28 39 158 39q119 0 305 -34h6v274q-175 45 -348 45q-311 0 -432 -207q-61 -88 -61 -319v-72z" />
    <glyph glyph-name="egrave" unicode="&#xe8;" horiz-adv-x="1097" 
d="M74 428v260q0 288 243 383q117 35 230 35q339 0 438 -217q39 -88 39 -250v-193h-612v-32q0 -112 71 -133q48 -17 119 -17h27q170 0 364 37h4v-270q0 -5 -172 -35q-108 -12 -247 -12q-359 0 -467 245q-37 96 -37 199zM180 1534l281 -365h182l-203 365h-260zM412 672h276
v18q0 44 -8.5 75t-21 48t-32.5 26.5t-37 12t-40 2.5q-137 0 -137 -131v-51z" />
    <glyph glyph-name="eacute" unicode="&#xe9;" horiz-adv-x="1097" 
d="M76 428v260q0 288 243 383q120 35 232 35q342 0 436 -217q39 -88 39 -250v-193h-612v-32q0 -112 73 -133q48 -17 119 -17h27q173 0 364 37h2v-270q0 -5 -170 -35q-111 -12 -247 -12q-359 0 -467 245q-39 103 -39 199zM414 672h276v18q0 114 -45 139q-38 25 -92 25
q-139 0 -139 -131v-51zM463 1169h180l279 365h-258z" />
    <glyph glyph-name="ecircumflex" unicode="&#xea;" horiz-adv-x="1097" 
d="M76 428v260q0 289 241 383q123 35 232 35q337 0 436 -217q39 -88 39 -250v-193h-610v-32q0 -112 71 -133q48 -17 119 -17h25q176 0 364 37h4v-270q0 -5 -170 -35q-108 -12 -245 -12q-362 0 -467 245q-39 103 -39 199zM215 1194h221l113 137l117 -137h221l-221 283h-230z
M414 672h274v18q0 54 -11 89t-33 50t-42.5 20t-50.5 5q-137 0 -137 -131v-51z" />
    <glyph glyph-name="edieresis" unicode="&#xeb;" horiz-adv-x="1097" 
d="M74 432v260q0 285 241 381q101 33 230 33q337 0 438 -219q41 -99 41 -244v-188l-6 -6h-610v-31q0 -114 77 -135q35 -15 117 -15h25q178 0 364 35l2 -2v-264q0 -10 -168 -37q-104 -14 -245 -14q-357 0 -465 245q-41 105 -41 201zM176 1329q0 -70 35 -96q31 -31 111 -31
q75 0 106 31q35 26 35 96q0 68 -35 94q-31 31 -106 31q-80 0 -111 -31q-35 -26 -35 -94zM408 674h278v18q0 112 -47 139q-44 23 -90 23q-141 0 -141 -127v-53zM637 1329q0 -72 33 -96q31 -31 108 -31q81 0 109 31q31 22 31 96q0 72 -31 94q-28 31 -109 31q-77 0 -108 -31
q-33 -24 -33 -94z" />
    <glyph glyph-name="igrave" unicode="&#xec;" horiz-adv-x="620" 
d="M6 1530l283 -363h178l-199 363h-262zM215 0h336v1090h-336v-1090z" />
    <glyph glyph-name="iacute" unicode="&#xed;" horiz-adv-x="614" 
d="M63 0h338v1092h-338v-1092zM147 1169h183l280 363h-260z" />
    <glyph glyph-name="icircumflex" unicode="&#xee;" horiz-adv-x="761" 
d="M41 1192h221l115 143l117 -143h219l-219 291h-232zM211 0h334v1092h-334v-1092z" />
    <glyph glyph-name="idieresis" unicode="&#xef;" horiz-adv-x="806" 
d="M39 1313q0 -70 35 -96q28 -31 102 -31q83 0 111 31q35 26 35 96q0 66 -35 92q-28 31 -111 31q-74 0 -102 -31q-35 -26 -35 -92zM242 0h331v1092h-331v-1092zM492 1313q0 -68 33.5 -97.5t109.5 -29.5q75 0 106 31q31 25 31 96q0 67 -31 92q-31 31 -106 31t-109 -29
t-34 -94z" />
    <glyph glyph-name="eth" unicode="&#xf0;" horiz-adv-x="1380" 
d="M70 588q0 -182 82 -319q80 -137 218 -210t312 -73q94 0 183 24q187 50 306 202q60 76 93.5 185t33.5 238q0 495 -395 815l254 113l-74 139l-333 -143q-169 111 -379 190l-160 -203q134 -59 225 -121l-254 -112l66 -146l348 152q95 -62 190 -180q-54 23 -157 16
q-150 -4 -278 -73q-129 -71 -205 -200.5t-76 -293.5zM399 569q0 115 62 211q32 50 91.5 79.5t135.5 29.5q133 0 207 -74q38 -35 54 -89.5t16 -147.5q0 -154 -72.5 -241t-208.5 -87q-132 0 -208.5 89.5t-76.5 229.5z" />
    <glyph glyph-name="ntilde" unicode="&#xf1;" horiz-adv-x="1118" 
d="M72 0v1092h276q1 0 6 -8q16 -27 27 -62q1 0 12 6q14 8 20 11q22 11 63 27q51 18 89 26q58 13 113 14q120 6 198.5 -27.5t133.5 -124.5q41 -74 41 -313v-641h-340v698q0 105 -95 123q-35 4 -65 2q-74 -5 -143 -45v-778h-336zM238 1174h161q6 81 56 81q10 0 15 -1
q12 -1 26 -6q4 -2 12 -5l16 -8q14 -7 17 -8q5 -1 35 -12q25 -9 40 -13q38 -12 82 -12q98 0 145.5 56.5t41.5 176.5h-160q-4 -45 -17 -62.5t-40 -17.5q-21 0 -62 19l-35 14q-14 4 -35 14q-17 7 -35 12q-29 7 -38 8q-33 3 -41 3q-89 0 -138.5 -63t-45.5 -176z" />
    <glyph glyph-name="ograve" unicode="&#xf2;" horiz-adv-x="1042" 
d="M31 446v201q0 131 28 199q94 256 441 256h37q105 0 194 -27q275 -86 275 -405v-242q0 -128 -45 -227q-115 -213 -443 -213q-160 0 -262 49q-225 89 -225 409zM160 1532l280 -367h176l-198 367h-258zM367 436q0 -50 6 -67q21 -103 139 -103h6q152 0 152 140v274
q0 49 -8 70q-41 71 -130 71h-30q-36 0 -60 -12q-75 -21 -75 -150v-223z" />
    <glyph glyph-name="oacute" unicode="&#xf3;" horiz-adv-x="1034" 
d="M31 428v242q0 319 272 405q92 27 197 27h37q343 0 442 -256q25 -87 25 -199v-201q0 -320 -224 -409q-102 -49 -262 -49q-330 0 -442 213q-45 99 -45 227zM367 406q0 -140 151 -140h6q119 0 140 103q6 48 6 67v223q0 129 -74 150q-34 12 -64 12h-28q-92 0 -127 -71
q-10 -29 -10 -70v-274zM418 1165h180l276 367h-256z" />
    <glyph glyph-name="ocircumflex" unicode="&#xf4;" horiz-adv-x="1038" 
d="M31 426v244q0 319 272 405q89 27 195 27h39q347 0 442 -254q27 -88 27 -201v-201q0 -324 -228 -413q-99 -45 -260 -45q-334 0 -442 215q-45 89 -45 223zM184 1194h219l115 137l117 -137h219l-219 283h-232zM365 403q0 -139 153 -139h6q118 0 142 103q4 9 4 67v225
q0 127 -74 148q-26 14 -64 14h-28q-89 0 -129 -73q-10 -29 -10 -68v-277z" />
    <glyph glyph-name="otilde" unicode="&#xf5;" horiz-adv-x="1036" 
d="M31 428v242q0 318 274 409q93 25 197 25h35q348 0 442 -256q29 -99 29 -201v-198q0 -323 -226 -414q-117 -47 -264 -47q-332 0 -440 215q-47 102 -47 225zM195 1174h165q6 81 54 81q18 0 33 -5q19 -7 32 -13q16 -8 48 -19q23 -8 60 -19q31 -9 70 -9q98 0 144.5 56
t40.5 177h-158q-4 -47 -16.5 -63.5t-42.5 -16.5q-15 0 -44 11q-7 3 -27 11.5t-24 10.5q-96 37 -147 37q-93 0 -142.5 -62.5t-45.5 -176.5zM369 406q0 -140 149 -140h8q118 0 142 101q4 28 4 69v223q0 128 -74 152q-30 12 -66 12h-26q-93 0 -127 -73q-10 -21 -10 -68v-276z
" />
    <glyph glyph-name="odieresis" unicode="&#xf6;" horiz-adv-x="1042" 
d="M31 428q0 -125 47 -227q104 -213 438 -213q151 0 262 47q230 92 230 414v198q0 112 -31 199q-99 256 -440 256h-39q-96 0 -195 -29q-272 -86 -272 -403v-242zM143 1325q0 -70 35 -100q31 -27 109 -27q77 0 108 27q31 31 31 100q0 71 -31 96q-15 15 -33 22q-24 9 -75 9
q-82 0 -109 -31q-35 -26 -35 -96zM365 403v279q0 45 10 66q34 73 127 73h30q32 0 62 -12q74 -21 74 -147v-226q0 -39 -4 -71q-27 -101 -142 -101h-6q-151 0 -151 139zM604 1325q0 -67 33 -100q31 -27 111 -27q77 0 108 27.5t31 99.5q0 74 -31 96q-27 31 -108 31
q-45 0 -69.5 -6t-41.5 -25q-33 -29 -33 -96z" />
    <glyph glyph-name="divide" unicode="&#xf7;" horiz-adv-x="1824" 
d="M88 422h1653v242h-1653v-242zM737 94q0 -22 2 -44q5 -53 37 -81q37 -37 137 -37q99 0 140 37q34 37 34 125q0 87 -34 121q-43 39 -140 39q-98 0 -137 -39q-18 -13 -27 -38q-12 -32 -12 -83zM737 995q0 -22 2 -44q5 -54 37 -79q32 -32 137 -32q103 0 140 32q34 34 34 123
q0 90 -34 125q-38 35 -140 35q-104 0 -137 -35q-39 -33 -39 -125z" />
    <glyph glyph-name="oslash" unicode="&#xf8;" horiz-adv-x="1320" 
d="M68 569q0 -359 208 -495l-65 -119l147 -84l76 137q102 -25 219 -22q306 -4 450.5 145.5t139.5 446.5q3 350 -209 493l68 117l-150 80l-75 -131q-92 21 -215 18q-594 7 -594 -586zM373 569v4q-3 158 59 238q70 94 219 94h8q50 0 84 -8l-317 -559q-56 83 -53 231zM569 246
l316 557q53 -80 53 -230v-4q0 -164 -66.5 -248.5t-212.5 -84.5h-8q-39 0 -82 10z" />
    <glyph glyph-name="ugrave" unicode="&#xf9;" horiz-adv-x="1142" 
d="M82 453v641h338v-701q0 -101 96 -125q29 -5 66 -2q75 5 145 47v781h338v-1096h-279l-10 20q-11 25 -20 52q-3 -1 -25 -12q-53 -26 -103 -43q-69 -24 -171 -29q-122 -6 -200.5 26t-135.5 123q-39 74 -39 318zM213 1534l276 -365h183l-203 365h-256z" />
    <glyph glyph-name="uacute" unicode="&#xfa;" horiz-adv-x="1142" 
d="M80 453v641h342v-701q0 -104 94 -125q29 -5 66 -2q75 5 141 47v781h340v-1096h-277q-5 13 -12 20q-20 35 -24 52q-2 0 -34 -16q-37 -18 -62 -29q-84 -35 -195 -39q-102 -6 -186 20q-97 30 -150 129q-43 79 -43 318zM465 1169h180l279 365h-256z" />
    <glyph glyph-name="ucircumflex" unicode="&#xfb;" horiz-adv-x="1142" 
d="M80 453v641h338v-701q0 -101 98 -125q26 -5 64 -2q73 5 143 47v781h340v-1096h-283l-10 20q-11 25 -20 52q-1 0 -5 -2l-12 -6t-17 -8q-30 -14 -62 -28q-86 -36 -199 -40q-123 -6 -201.5 26t-130.5 123q-43 79 -43 318zM233 1196h222l114 139l117 -139h221l-221 283h-231z
" />
    <glyph glyph-name="udieresis" unicode="&#xfc;" horiz-adv-x="1142" 
d="M80 453q0 -242 41 -318q52 -90 132.5 -122.5t205.5 -26.5q60 2 115 15q72 16 147 53q8 4 16.5 8t13 6t5.5 2q10 -30 18 -52l10 -20h277v1096h-334v-781q-70 -42 -145 -47q-37 -3 -66 2q-96 24 -96 125v701h-340v-641zM197 1329q0 -71 29 -98t114 -27q78 0 111 27
q32 30 32 98q0 67 -32 94q-33 33 -111 33q-86 0 -113 -33q-30 -25 -30 -94zM662 1329q0 -68 32 -98q33 -27 109 -27q81 0 112 28.5t31 96.5q0 65 -33 94q-27 33 -110 33q-76 0 -109 -33q-32 -27 -32 -94z" />
    <glyph glyph-name="yacute" unicode="&#xfd;" horiz-adv-x="1282" 
d="M31 1092h372l256 -674l213 674h375q-88 -253 -178 -498q-138 -378 -213 -594q-1 -3 -8 -21t-13 -34q-17 -46 -52 -122q-20 -45 -78 -117q-45 -55 -123 -89q-110 -45 -267 -45q-55 0 -139 4v279q42 -2 90 -2h25q85 0 121 16q71 21 71 131zM549 1165h182l277 367h-256z" />
    <glyph glyph-name="thorn" unicode="&#xfe;" horiz-adv-x="1492" 
d="M84 -547h408v551q164 -127 389 -127q103 -2 199 41.5t172 125.5q77 84 121 213.5t44 283.5q0 152 -44 280.5t-121 212.5q-76 82 -172 125t-199 41q-225 0 -389 -125v553h-408v-2175zM485 541q0 123 33 184q37 62 96.5 98.5t126.5 36.5q118 0 192 -89t79 -230
q-5 -141 -79 -231.5t-192 -90.5q-70 0 -129 35q-63 38 -95 104t-32 183z" />
    <glyph glyph-name="ydieresis" unicode="&#xff;" horiz-adv-x="1284" 
d="M35 1092l454 -1092q0 -110 -71 -131q-28 -16 -119 -16h-27q-48 0 -90 2v-279q76 -4 137 -4q160 0 265 45q85 36 138 100q55 69 83 132q27 62 50 131q1 3 3.5 10t3.5 10q98 282 211 594q90 245 178 498h-374l-211 -674l-258 674h-373zM272 1327q0 -71 31 -96
q31 -31 113 -31q78 0 106 31q33 29 33 96q0 65 -33 94q-28 31 -106 31q-82 0 -113 -31q-31 -25 -31 -94zM731 1327q0 -72 33 -96q31 -31 108 -31q80 0 111 31q31 25 31 96q0 69 -31 94q-31 31 -111 31q-77 0 -108 -31q-33 -24 -33 -94z" />
    <glyph glyph-name="OE" unicode="&#x152;" horiz-adv-x="1863" 
d="M43 719q0 -276 51 -381q76 -180 238 -268q159 -84 393 -84q82 0 182 14h887v297h-502v336h367l33 280h-400v322h502v301h-893v-2q-79 12 -176 12q-239 0 -393 -88q-125 -66 -203 -196q-86 -122 -86 -443v-100zM424 645v234q0 121 20 196t50 92q59 62 231 68
q101 -3 176 -31v-878q-64 -30 -176 -33q-184 6 -238 78q-28 19 -45 91q-18 70 -18 183z" />
    <glyph glyph-name="oe" unicode="&#x153;" horiz-adv-x="1708" 
d="M35 426q0 -130 47 -221q105 -215 438 -215q157 0 268 47q25 8 64 33q127 -84 340 -84q96 0 244 12q172 30 172 35v270h-6q-186 -35 -365 -35h-25q-27 0 -40 0.5t-37.5 3t-37.5 8t-30 16t-25.5 26t-15 39.5t-6.5 55v33h614v190q0 165 -37 248q-102 221 -440 221
q-124 0 -229 -35q-47 -15 -82 -43q-118 76 -305 76h-35q-90 0 -197 -27q-274 -91 -274 -405v-248zM373 408v276q0 46 8 68q35 71 129 71h29q29 0 63 -8q74 -24 74 -153v-224q0 -44 -6 -71q-21 -99 -142 -99h-8q-147 0 -147 140zM1020 676v47q0 133 139 133q22 0 37.5 -2
t35.5 -11.5t33 -26t22 -47.5t9 -75v-18h-276z" />
    <glyph glyph-name="Ydieresis" unicode="&#x178;" horiz-adv-x="1280" 
d="M4 1534h430l205 -633l207 633h428l-615 -1534h-428l191 477zM268 1788q0 -69 31 -94q31 -33 111 -33q75 0 108 33q33 28 33 94q0 69 -33 98q-32 29 -108 29q-82 0 -111 -29q-31 -25 -31 -98zM727 1788q0 -70 33 -94q33 -33 108 -33q78 0 111 33q31 25 31 94q0 73 -31 98
q-32 29 -111 29q-76 0 -108 -29q-33 -24 -33 -98z" />
    <glyph glyph-name="circumflex" unicode="&#x2c6;" horiz-adv-x="1333" 
d="M61 811h306l288 571h9l288 -571h316l-465 862h-281z" />
    <glyph glyph-name="uni2000" unicode="&#x2000;" horiz-adv-x="994" 
 />
    <glyph glyph-name="uni2001" unicode="&#x2001;" horiz-adv-x="1989" 
 />
    <glyph glyph-name="uni2002" unicode="&#x2002;" horiz-adv-x="994" 
 />
    <glyph glyph-name="uni2003" unicode="&#x2003;" horiz-adv-x="1989" 
 />
    <glyph glyph-name="uni2004" unicode="&#x2004;" horiz-adv-x="663" 
 />
    <glyph glyph-name="uni2005" unicode="&#x2005;" horiz-adv-x="497" 
 />
    <glyph glyph-name="uni2006" unicode="&#x2006;" horiz-adv-x="331" 
 />
    <glyph glyph-name="uni2007" unicode="&#x2007;" horiz-adv-x="331" 
 />
    <glyph glyph-name="uni2008" unicode="&#x2008;" horiz-adv-x="248" 
 />
    <glyph glyph-name="uni2009" unicode="&#x2009;" horiz-adv-x="397" 
 />
    <glyph glyph-name="uni200A" unicode="&#x200a;" horiz-adv-x="110" 
 />
    <glyph glyph-name="uni2010" unicode="&#x2010;" horiz-adv-x="1083" 
d="M82 408h924v280h-924v-280z" />
    <glyph glyph-name="uni2011" unicode="&#x2011;" horiz-adv-x="1083" 
d="M82 408h924v280h-924v-280z" />
    <glyph glyph-name="figuredash" unicode="&#x2012;" horiz-adv-x="1083" 
d="M82 408h924v280h-924v-280z" />
    <glyph glyph-name="endash" unicode="&#x2013;" horiz-adv-x="1183" 
d="M82 408h1024v280h-1024v-280z" />
    <glyph glyph-name="emdash" unicode="&#x2014;" horiz-adv-x="2207" 
d="M82 408h2048v280h-2048v-280z" />
    <glyph glyph-name="quoteleft" unicode="&#x2018;" horiz-adv-x="495" 
d="M72 1180q0 -26 2 -48q4 -51 37 -77q40 -33 137 -33q94 0 135 33q18 15 28 37q13 31 13 88q0 48 -8 74t-33 46q-8 8 -13 11q-14 9 -28 14q-3 1 -8 3t-6 2q-9 3 -31 7q-2 0 -16 2q-3 0 -6.5 0.5t-5.5 1t-3 0.5l72 195l-98 -4l-142 -240q-6 -8 -14 -28q-12 -36 -12 -84z" />
    <glyph glyph-name="quoteright" unicode="&#x2019;" horiz-adv-x="514" 
d="M78 1376q0 -48 8 -74.5t33 -46.5q5 -6 13 -10q17 -11 28 -15l15 -5q14 -6 31 -6q5 -2 16 -3q3 0 6 -0.5t5 -1t3 -0.5l-72 -194l98 4l141 240q7 14 13 28q14 44 14 84q0 37 -1 48q-4 50 -38 77q-40 33 -137 33q-98 0 -135 -33q-18 -15 -27 -37q-14 -31 -14 -88z" />
    <glyph glyph-name="quotesinglbase" unicode="&#x201a;" horiz-adv-x="491" 
d="M70 145q0 -48 8 -74t33 -46q10 -10 26 -18q6 -5 29 -11q24 -7 31 -7q3 -2 16 -3q3 0 6.5 -0.5t5.5 -1.5h2l-71 -195l98 4l141 240q7 14 13 28q14 44 14 84q0 37 -1 48q-4 50 -38 77q-40 33 -137 33q-98 0 -135 -33q-18 -15 -27 -37q-14 -31 -14 -88z" />
    <glyph glyph-name="quotedblleft" unicode="&#x201c;" horiz-adv-x="901" 
d="M63 1180q0 -26 2 -48q4 -51 37 -77q40 -33 138 -33q94 0 135 33q18 15 28 37q13 31 13 88q0 48 -8 74t-33 46q-8 8 -13 11q-14 9 -28 14q-3 1 -8 3t-6 2q-9 3 -31 7q-2 0 -16 2q-3 0 -6.5 0.5t-5.5 1t-3 0.5l72 195l-99 -4l-141 -240q-6 -8 -14 -28q-13 -38 -13 -84z
M481 1180q0 -26 2 -48q4 -51 37 -77q40 -33 137 -33q95 0 136 33q18 15 28 37q13 31 13 88q0 48 -8 74t-33 46q-8 8 -13 11q-14 9 -28 14q-3 1 -8 3t-6 2q-9 3 -31 7q-2 0 -16 2q-3 0 -6.5 0.5t-5.5 1t-3 0.5l72 195l-99 -4l-141 -240q-6 -8 -14 -28q-13 -38 -13 -84z" />
    <glyph glyph-name="quotedblright" unicode="&#x201d;" horiz-adv-x="917" 
d="M76 1376q0 -48 8 -74.5t33 -46.5q10 -10 26 -18q6 -5 29 -11q24 -7 31 -7q3 -2 16 -3q3 0 6.5 -0.5t5.5 -1.5h2l-71 -194l98 4l141 240q7 14 13 28q14 44 14 84q0 37 -1 48q-4 50 -38 77q-40 33 -137 33q-98 0 -135 -33q-18 -15 -27 -37q-14 -31 -14 -88zM494 1376
q0 -48 8 -74.5t33 -46.5q10 -10 26 -18q6 -5 29 -11q24 -7 31 -7q3 -2 16 -3q3 0 6.5 -0.5t5.5 -1.5h2l-71 -194l98 4l141 240q3 6 12 28q15 45 15 84q0 37 -1 48q-4 50 -38 77q-40 33 -137 33q-98 0 -135 -33q-18 -15 -27 -37q-14 -31 -14 -88z" />
    <glyph glyph-name="quotedblbase" unicode="&#x201e;" horiz-adv-x="897" 
d="M63 145q0 -48 8 -74t33 -46q5 -6 13 -10q17 -11 28 -15l15 -5q14 -6 31 -6q5 -2 16 -3l14 -2l-71 -195l98 4l141 240q3 6 12 28q15 45 15 84q0 37 -1 48q-4 50 -38 77q-40 33 -137 33q-98 0 -136 -33q-18 -15 -27 -37q-14 -31 -14 -88zM481 145q0 -48 8 -74t33 -46
q6 -6 13 -10q17 -11 28 -15l15 -5q14 -6 31 -6q5 -2 16 -3l14 -2l-72 -195l99 4l141 240q3 6 12 28q15 45 15 84q0 37 -1 48q-4 50 -38 77q-41 33 -138 33t-135 -33q-18 -15 -27 -37q-14 -31 -14 -88z" />
    <glyph glyph-name="uni202F" unicode="&#x202f;" horiz-adv-x="397" 
 />
    <glyph glyph-name="guilsinglleft" unicode="&#x2039;" horiz-adv-x="1026" 
d="M59 541l482 -615h428l-488 615l488 612h-428z" />
    <glyph glyph-name="guilsinglright" unicode="&#x203a;" horiz-adv-x="1050" 
d="M78 -72h428l481 613l-481 614h-428l487 -614z" />
    <glyph glyph-name="uni205F" unicode="&#x205f;" horiz-adv-x="497" 
 />
    <glyph glyph-name="Euro" unicode="&#x20ac;" horiz-adv-x="1495" 
d="M72 549h229q7 -128 47 -209q156 -354 660 -354q110 0 241 14q34 4 95 15q17 3 32.5 5t24 3.5t10.5 1.5v303q-211 -33 -334 -33h-39q-113 0 -193 20t-106 56q-51 37 -65 178h620l17 170h-639v92h651l20 172h-667q21 157 69 180q64 70 304 70q139 0 362 -33v301
q-206 43 -403 43q-446 0 -621 -282q-65 -82 -86 -279h-178l-23 -172h195v-92h-203z" />
    <glyph glyph-name="trademark" unicode="&#x2122;" horiz-adv-x="1517" 
d="M70 1278h170v-467h190v467h174v147h-534v-147zM651 811h172q1 47 11 223q10 186 10 287l108 -498h178l121 498q0 -31 3 -106q0 -11 0.5 -30.5t1.5 -53.5t2 -62q3 -108 6 -258h182l-33 614h-280l-89 -350q-16 101 -40 211q-7 29 -15 74q-3 13 -6 28t-5 23.5t-3 13.5h-287z
" />
    <glyph glyph-name="uniE000" unicode="&#xe000;" horiz-adv-x="1090" 
d="M0 0v1090h1090v-1090h-1090z" />
  </font>
</defs>
</svg>
